<?xml version="1.0" standalone="no"?>
<!DOCTYPE svg PUBLIC "-//W3C//DTD SVG 1.1//EN" "http://www.w3.org/Graphics/SVG/1.1/DTD/svg11.dtd" >
<svg xmlns="http://www.w3.org/2000/svg">
<metadata></metadata>
<defs>
<font id="neosansregular" horiz-adv-x="1187" >
<font-face units-per-em="2048" ascent="1638" descent="-410" />
<missing-glyph horiz-adv-x="440" />
<glyph horiz-adv-x="0" />
<glyph horiz-adv-x="682" />
<glyph unicode=" "  horiz-adv-x="440" />
<glyph unicode="&#x09;" horiz-adv-x="440" />
<glyph unicode="&#xa0;" horiz-adv-x="440" />
<glyph unicode="&#x26;" horiz-adv-x="1304" d="M102 342v12q0 125 68 216t244 204q-107 125 -162.5 208.5t-69.5 127.5t-14 96v13q0 84 30 146t84 97.5t123 52.5t154 17q73 0 137.5 -17t119 -52.5t86.5 -98t32 -145.5v-13q0 -118 -72 -210t-250 -199l-67 -41q31 -34 101.5 -109.5t90.5 -97.5l244 -262q104 162 104 426 v22q0 39 31 39h29q33 0 33 -39v-22q0 -298 -136 -492l181 -194q4 -8 4 -13q0 -14 -17 -14h-65q-21 0 -33 14l-129 138q-158 -164 -418 -164q-66 0 -127.5 9.5t-124 35t-108 64t-74.5 102t-29 143.5zM199 342q0 -72 31 -126.5t84.5 -85.5t116 -45.5t134.5 -14.5 q226 0 361 145l-254 272q-149 161 -203 222q-160 -101 -215 -171t-55 -184v-12zM262 1206q0 -47 12 -84t62.5 -110.5t152.5 -190.5l76 45q162 97 218.5 169t56.5 171v13q0 231 -281 231q-70 0 -120.5 -10.5t-92.5 -35t-63 -71t-21 -114.5v-13z" />
<glyph unicode="," horiz-adv-x="344" d="M49 -184q0 6 4 18l109 344q11 39 41 39h39q24 0 24 -22q0 -5 -4 -17l-129 -344q-8 -21 -16.5 -30t-22.5 -9h-24q-21 0 -21 21z" />
<glyph unicode="-" horiz-adv-x="704" d="M106 559v16q0 15 11 26t28 11h414q17 0 28 -11t11 -26v-16q0 -15 -11 -24t-28 -9h-414q-17 0 -28 9t-11 24z" />
<glyph unicode="." horiz-adv-x="344" d="M127 27v151q0 15 12 27t27 12h12q15 0 27 -12t12 -27v-151q0 -17 -11.5 -28t-27.5 -11h-12q-16 0 -27.5 11t-11.5 28z" />
<glyph unicode="0" d="M123 559v404q0 288 124 428.5t347 140.5t347 -140.5t124 -428.5v-404q0 -288 -124 -429.5t-347 -141.5t-347 141.5t-124 429.5zM213 559q0 -241 97.5 -365t283.5 -124t283.5 124t97.5 365v404q0 241 -97.5 364t-283.5 123t-283.5 -123t-97.5 -364v-404z" />
<glyph unicode="1" d="M283 1430v10q0 21 10 29t31 12l284 41h10q37 0 37 -41v-1440q0 -17 -12 -29t-29 -12h-8q-17 0 -29 12t-12 29v1393l-241 -31h-11q-30 0 -30 27z" />
<glyph unicode="2" d="M164 41v125q0 83 11 145t43.5 130.5t97 134t165.5 133.5l209 141q139 94 187.5 160t48.5 164q0 140 -88 206t-289 66q-152 0 -313 -31q-2 0 -6 -1t-5 -1q-14 0 -23 9t-9 24v22q0 25 38 33q140 31 318 31q475 0 475 -358q0 -117 -59 -202.5t-217 -191.5l-209 -141 q-65 -44 -112.5 -83.5t-78.5 -78t-49.5 -72t-28 -75.5t-12 -77t-2.5 -87v-82h709q41 0 41 -31v-22q0 -31 -41 -31h-760q-18 0 -29.5 12.5t-11.5 28.5z" />
<glyph unicode="3" d="M172 55v13q0 32 33 32h8q160 -26 295 -26q213 0 312.5 82t99.5 266v41q0 44 -16 92t-48 94.5t-91.5 76.5t-135.5 30h-383q-17 0 -28 11t-11 26v14q0 17 11 27t28 10h383q68 0 121 20t84.5 50t51.5 70.5t27 76.5t7 72v24q0 86 -25 142.5t-79 88.5t-127 45t-181 13 q-105 0 -295 -31h-8q-15 0 -24 9t-9 24v16q0 13 11 23.5t26 13.5q177 31 299 31q124 0 213 -17t158 -58.5t103 -116t34 -183.5v-24q0 -109 -50.5 -199t-162.5 -139q57 -26 100 -67t66.5 -87.5t35 -91t11.5 -86.5v-41q0 -223 -133.5 -328.5t-374.5 -105.5q-153 0 -299 30 q-15 3 -26 13.5t-11 23.5z" />
<glyph unicode="4" d="M78 553q0 43 28 86l574 842q34 51 104 51q36 0 59 -24t23 -74v-906h205q16 0 27.5 -9t11.5 -23v-19q0 -16 -11.5 -25.5t-27.5 -9.5h-205v-403q0 -16 -9 -27.5t-23 -11.5h-25q-16 0 -24.5 11.5t-8.5 27.5v403h-567q-61 0 -96 31.5t-35 79.5zM164 553q0 -25 45 -25h567v893 q0 17 -12 17q-8 0 -21 -17l-559 -821q-20 -32 -20 -47z" />
<glyph unicode="5" d="M158 63v23q0 27 26 27q11 0 17 -2q154 -37 311 -37q207 0 317.5 92t110.5 274v52q0 177 -115 247t-379 70h-217q-19 0 -30 11t-11 30v4l48 633q1 15 13.5 25t26.5 10h668q17 0 29 -8.5t12 -24.5v-23q0 -28 -41 -28h-620l-37 -545h159q165 0 279 -25t180.5 -77.5 t95.5 -124.5t29 -174v-52q0 -218 -141 -335t-377 -117q-152 0 -315 37q-39 7 -39 38z" />
<glyph unicode="6" d="M131 518v481q0 282 125 407.5t377 125.5q99 0 167.5 -9.5t157.5 -29.5q46 -8 46 -37v-20q0 -29 -33 -29q-11 0 -17 2q-95 20 -161 28.5t-160 8.5q-215 0 -313.5 -101t-98.5 -346v-127q208 54 379 54q70 0 133.5 -12t123.5 -41t103.5 -73.5t70 -115t26.5 -160.5v-10 q0 -264 -114 -395t-359 -131q-230 0 -341.5 130.5t-111.5 399.5zM221 518q0 -242 86.5 -345t276.5 -103t286.5 103.5t96.5 340.5v10q0 72 -21.5 128.5t-56.5 91.5t-84 57.5t-99 31.5t-106 9q-196 0 -379 -49v-275z" />
<glyph unicode="7" d="M127 1466v17q0 15 12 27t29 12h811q35 0 57.5 -20t22.5 -52q0 -25 -10 -45l-656 -1385q-3 -7 -15.5 -13.5t-21.5 -6.5h-30q-14 0 -22.5 9t-8.5 22q0 12 6 24l647 1350q2 4 2 12q0 17 -16 17h-766q-18 0 -29.5 8.5t-11.5 23.5z" />
<glyph unicode="8" d="M115 403v62q0 60 21.5 121.5t71.5 120.5t120 90q-98 35 -155.5 122t-57.5 195v45q0 187 129 280t350 93t350 -93t129 -280v-45q0 -108 -57.5 -195t-155.5 -122q70 -31 120 -90t71.5 -120.5t21.5 -121.5v-62q0 -104 -36 -184t-100.5 -130t-151 -75.5t-191.5 -25.5 t-191.5 25.5t-151 75.5t-100.5 130t-36 184zM211 403q0 -161 99 -245t284 -84t284 84t99 245v62q0 31 -8 66.5t-29.5 76.5t-54 73t-86.5 53.5t-121 21.5h-168q-67 0 -121 -21.5t-86.5 -53.5t-54 -73t-29.5 -76.5t-8 -66.5v-62zM211 1114q0 -37 8.5 -73t30 -72.5t54.5 -63.5 t86 -44t120 -17h168q67 0 120 17t86 44t54.5 63.5t30 72.5t8.5 73v45q0 287 -383 287t-383 -287v-45z" />
<glyph unicode="9" d="M131 995v11q0 264 114 395t359 131q230 0 341.5 -131t111.5 -400v-481q0 -281 -125 -406.5t-377 -125.5q-156 0 -326 39q-45 8 -45 36v21q0 29 33 29q10 0 16 -2q175 -37 322 -37q144 0 232 41.5t134 140.5t46 264v127q-204 -53 -379 -53q-70 0 -133 11.5t-123.5 41 t-104 73.5t-70 114.5t-26.5 160.5zM221 995q0 -72 21.5 -128.5t56.5 -91.5t84 -57.5t99 -31t106 -8.5q196 0 379 49v274q0 242 -87 345.5t-276 103.5q-190 0 -286.5 -103.5t-96.5 -340.5v-11z" />
<glyph unicode="A" horiz-adv-x="1267" d="M80 27q0 12 2 18l420 1387q14 47 48.5 73.5t84.5 26.5q49 0 83 -26t48 -72l420 -1389q4 -12 4 -20q0 -31 -33 -31h-24q-12 0 -21 7.5t-12 18.5l-172 555h-590l-168 -555q-3 -10 -13 -18t-20 -8h-26q-14 0 -22.5 9.5t-8.5 23.5zM362 666h543l-223 743q-12 41 -47 41 q-37 0 -47 -39z" />
<glyph unicode="B" d="M164 41v1440q0 15 12 26t27 13q168 12 307 12q91 0 167 -9t152 -33.5t127.5 -65t84 -107.5t32.5 -156v-22q0 -125 -64 -212.5t-180 -127.5q120 -36 186 -124.5t66 -223.5v-35q0 -104 -35.5 -183t-90.5 -125t-133.5 -74.5t-152.5 -38t-159 -9.5q-160 0 -307 16 q-39 3 -39 39zM254 80q176 -12 256 -12q81 0 145 7.5t129.5 30t109 59.5t70.5 101t27 150v35q0 50 -10 92.5t-36 82.5t-66 68t-105 45t-149 17h-371v-676zM254 844h371q358 0 358 295v22q0 61 -18 108.5t-52 78.5t-76 52t-98.5 32t-110 15.5t-118.5 4.5q-54 0 -153 -4 t-103 -4v-600z" />
<glyph unicode="C" horiz-adv-x="1099" d="M123 625v270q0 142 28 253.5t74.5 182.5t112.5 117t136 65t151 19q169 0 354 -21q15 -2 27 -11t12 -23v-25q0 -25 -27 -25h-12q-176 19 -354 19q-89 0 -161.5 -30t-130 -93.5t-89 -172t-31.5 -255.5v-270q0 -147 31.5 -255.5t89 -172t130 -93.5t161.5 -30q187 0 354 18 h12q27 0 27 -24v-25q0 -14 -12 -23.5t-27 -11.5q-177 -20 -354 -20q-81 0 -151 19t-136 65t-112.5 117t-74.5 182.5t-28 253.5z" />
<glyph unicode="D" horiz-adv-x="1255" d="M164 43v1434q0 13 10.5 24.5t24.5 14.5q94 16 336 16q598 0 598 -645v-254q0 -138 -29 -247.5t-81 -183.5t-127.5 -122.5t-164.5 -70t-196 -21.5q-242 0 -336 16q-14 3 -24.5 14.5t-10.5 24.5zM254 76q120 -8 281 -8q507 0 507 565v254q0 128 -25.5 226t-70 161.5 t-109.5 104t-138.5 57t-163.5 16.5q-101 0 -281 -12v-1364z" />
<glyph unicode="E" horiz-adv-x="1091" d="M164 229v1063q0 124 62.5 177t185.5 53h528q17 0 28 -10t11 -25v-17q0 -15 -10.5 -23.5t-28.5 -8.5h-528q-82 0 -120 -28.5t-38 -117.5v-450h686q17 0 28 -9t11 -24v-21q0 -15 -11 -24.5t-28 -9.5h-686v-525q0 -89 38 -117t120 -28h528q17 0 28 -9t11 -24v-16 q0 -15 -11 -25t-28 -10h-528q-123 0 -185.5 52.5t-62.5 176.5z" />
<glyph unicode="F" horiz-adv-x="1060" d="M164 39v1253q0 124 62.5 177t185.5 53h528q17 0 28 -10t11 -25v-17q0 -15 -10.5 -23.5t-28.5 -8.5h-528q-82 0 -120 -28.5t-38 -117.5v-450h686q17 0 28 -9t11 -24v-21q0 -15 -11 -24.5t-28 -9.5h-686v-715q0 -15 -10 -27t-25 -12h-20q-15 0 -25 12t-10 27z" />
<glyph unicode="G" horiz-adv-x="1204" d="M123 633v254q0 148 31 263t80.5 185.5t118.5 116t138 63t146 17.5q184 0 369 -21q34 -4 34 -32v-21q0 -17 -6.5 -24t-23.5 -7h-13q-217 21 -360 21q-66 0 -123.5 -15t-114 -54.5t-96.5 -101t-65 -161.5t-25 -229v-254q0 -282 111.5 -420.5t312.5 -138.5q163 0 311 18v651 q0 17 10 28t25 11h21q15 0 24.5 -11t9.5 -28v-690q0 -15 -10 -26t-24 -13q-212 -26 -367 -26q-112 0 -203.5 38t-162 114t-109.5 202t-39 291z" />
<glyph unicode="H" horiz-adv-x="1325" d="M164 39v1444q0 15 10 27t25 12h20q15 0 25 -12t10 -27v-627h819v627q0 16 9.5 27.5t25.5 11.5h18q16 0 25.5 -11.5t9.5 -27.5v-1444q0 -16 -9.5 -27.5t-25.5 -11.5h-18q-16 0 -25.5 11.5t-9.5 27.5v733h-819v-733q0 -15 -10 -27t-25 -12h-20q-15 0 -25 12t-10 27z" />
<glyph unicode="I" horiz-adv-x="458" d="M184 39v1444q0 15 10 27t25 12h21q15 0 24.5 -11.5t9.5 -27.5v-1444q0 -16 -9.5 -27.5t-24.5 -11.5h-21q-15 0 -25 12t-10 27z" />
<glyph unicode="J" horiz-adv-x="458" d="M-90 -350q0 31 41 31h29q126 0 165 37.5t39 158.5v1606q0 15 10 27t25 12h21q15 0 24.5 -11.5t9.5 -27.5v-1606q0 -147 -65 -211.5t-229 -64.5h-29q-41 0 -41 28v21z" />
<glyph unicode="K" horiz-adv-x="1110" d="M164 39v1444q0 15 12 27t27 12h12q15 0 27 -12t12 -27v-656l696 680q26 23 47 23q16 0 27.5 -11t11.5 -24q0 -21 -16 -37l-688 -667l702 -730q15 -15 15 -32q0 -14 -10.5 -23.5t-28.5 -9.5q-31 0 -47 16l-709 738v-711q0 -15 -10 -27t-25 -12h-20q-15 0 -25 12t-10 27z " />
<glyph unicode="L" horiz-adv-x="989" d="M164 229v1254q0 15 10 27t25 12h20q15 0 25 -12t10 -27v-1254q0 -89 38 -117t120 -28h467q17 0 28 -9t11 -24v-16q0 -15 -11 -25t-28 -10h-467q-123 0 -185.5 52.5t-62.5 176.5z" />
<glyph unicode="M" horiz-adv-x="1495" d="M164 39v1393q0 50 27.5 75t76.5 25q65 0 94 -64l359 -751q12 -27 27 -27q14 0 26 27l359 751q29 64 94 64q49 0 76.5 -25t27.5 -75v-1393q0 -15 -10 -27t-25 -12h-20q-15 0 -25 12t-10 27v1393q0 14 -14 14q-13 0 -21 -19l-354 -747q-21 -42 -44.5 -58t-59.5 -16t-60 16 t-45 58l-354 747q-8 19 -21 19q-14 0 -14 -14v-1393q0 -15 -10 -27t-25 -12h-20q-15 0 -25 12t-10 27z" />
<glyph unicode="N" horiz-adv-x="1333" d="M164 39v1393q0 45 27.5 72.5t72.5 27.5q40 0 61.5 -16t36.5 -48l689 -1380q7 -14 16 -14q10 0 10 18v1391q0 16 9.5 27.5t23.5 11.5h25q16 0 25 -11.5t9 -27.5v-1391q0 -48 -26 -76t-66 -28h-2q-49 0 -67 14q-23 19 -37 47l-690 1383q-7 14 -17 14t-10 -14v-1393 q0 -15 -10 -27t-25 -12h-20q-15 0 -25 12t-10 27z" />
<glyph unicode="O" horiz-adv-x="1294" d="M123 633v254q0 167 38.5 292.5t109.5 202t165 113.5t211 37t211 -37t165 -113.5t109.5 -202t38.5 -292.5v-254q0 -167 -38.5 -292.5t-109.5 -202t-165 -113.5t-211 -37t-211 37t-165 113.5t-109.5 202t-38.5 292.5zM213 633q0 -123 21.5 -218.5t59.5 -159t93.5 -105 t119 -59t140.5 -17.5t140.5 17.5t119 59t93.5 105t59.5 159t21.5 218.5v254q0 123 -21.5 218.5t-59.5 159t-93.5 105t-119 59t-140.5 17.5t-140.5 -17.5t-119 -59t-93.5 -105t-59.5 -159t-21.5 -218.5v-254z" />
<glyph unicode="P" horiz-adv-x="1105" d="M164 39v1444q0 14 11 26t24 13q180 10 278 10q557 0 557 -416v-35q0 -233 -142 -335.5t-415 -102.5q-109 0 -223 8v-612q0 -15 -10 -27t-25 -12h-20q-15 0 -25 12t-10 27zM254 731q126 -8 223 -8q242 0 354.5 83t112.5 275v35q0 184 -114.5 260t-352.5 76q-135 0 -223 -6 v-715z" />
<glyph unicode="Q" horiz-adv-x="1294" d="M123 633v254q0 167 38.5 292.5t109.5 202t165 113.5t211 37t211 -37t165 -113.5t109.5 -202t38.5 -292.5v-254q0 -313 -129 -471.5t-352 -171.5v-137q0 -61 4.5 -91t26 -50.5t56.5 -25.5t104 -5h43q41 0 41 -33v-15q0 -32 -41 -32h-43q-61 0 -100.5 4.5t-77 19.5t-58 42 t-33 73t-12.5 113v137q-221 14 -349 173t-128 470zM213 633q0 -123 21.5 -218.5t59.5 -159t93.5 -105t119 -59t140.5 -17.5t140.5 17.5t119 59t93.5 105t59.5 159t21.5 218.5v254q0 123 -21.5 218.5t-59.5 159t-93.5 105t-119 59t-140.5 17.5t-140.5 -17.5t-119 -59 t-93.5 -105t-59.5 -159t-21.5 -218.5v-254z" />
<glyph unicode="R" horiz-adv-x="1224" d="M164 39v1446q0 14 11 26t24 13q144 8 319 8q286 0 421.5 -95t135.5 -323v-10q0 -184 -90 -280.5t-276 -127.5l413 -637q11 -18 11 -28q0 -13 -8.5 -22t-24.5 -9h-27q-17 0 -31 18l-436 668h-33h-55l-264 2v-649q0 -15 -10 -27t-25 -12h-20q-15 0 -25 12t-10 27zM254 774 q27 0 130.5 -1t133.5 -1q124 0 207.5 15t144 52.5t88 102t27.5 162.5v10q0 185 -113.5 258.5t-353.5 73.5q-183 0 -264 -8v-664z" />
<glyph unicode="S" horiz-adv-x="1085" d="M113 1200q0 332 479 332q74 0 305 -21q35 -3 35 -30v-27q0 -29 -39 -29q-15 0 -129.5 10.5t-173.5 10.5q-201 0 -293 -60t-92 -188q0 -89 63 -155.5t213 -157.5l131 -80q76 -46 125.5 -79.5t98.5 -75t76.5 -80.5t44 -87.5t16.5 -103.5q0 -391 -475 -391q-47 0 -97.5 2.5 t-77 5t-81 8t-62.5 6.5q-15 2 -26 10.5t-11 22.5v27q0 26 39 26h8q34 -3 96 -9t112 -9.5t100 -3.5q90 0 158 16t110 42.5t68 66.5t35.5 83t9.5 97q0 45 -12 80.5t-31 63.5t-62 61.5t-83.5 60t-117.5 74.5q-7 4 -10 6l-129 80q-64 40 -105.5 68.5t-86.5 67.5t-70.5 75 t-42 83.5t-16.5 100.5z" />
<glyph unicode="T" horiz-adv-x="1169" d="M61 1468v19q0 15 11 25t28 10h969q17 0 28 -10t11 -25v-19q0 -30 -39 -30h-438v-1399q0 -15 -10 -27t-25 -12h-21q-15 0 -24.5 11.5t-9.5 27.5v1399h-441q-39 0 -39 30z" />
<glyph unicode="U" horiz-adv-x="1296" d="M164 541v942q0 15 10 27t25 12h20q15 0 25 -12t10 -27v-942q0 -231 93 -350t302 -119q208 0 300.5 118.5t92.5 350.5v942q0 15 10 27t25 12h21q15 0 25 -12t10 -27v-942q0 -266 -119.5 -409.5t-364.5 -143.5t-365 143.5t-120 409.5z" />
<glyph unicode="V" horiz-adv-x="1290" d="M90 1485q0 16 9 26.5t26 10.5h22q11 0 20.5 -8.5t12.5 -20.5l418 -1378q12 -41 47 -41t47 41l418 1378q3 12 12.5 20.5t20.5 8.5h22q17 0 26 -10.5t9 -26.5q0 -11 -2 -15l-420 -1382q-29 -100 -133 -100t-133 100l-420 1382q-2 4 -2 15z" />
<glyph unicode="W" horiz-adv-x="1613" d="M92 1475v10q0 15 9 26t24 11h20q31 0 37 -33l248 -1387q5 -30 12 -30q8 0 17 30l256 797q24 80 92 80t92 -80l256 -797q9 -30 16 -30q8 0 13 30l248 1387q6 33 36 33h21q15 0 24 -11t9 -26v-10l-252 -1391q-17 -96 -99 -96q-42 0 -63 24t-35 68l-250 792q-7 25 -16 25 t-16 -25l-250 -792q-14 -44 -35.5 -68t-63.5 -24q-81 0 -98 96z" />
<glyph unicode="X" horiz-adv-x="1232" d="M82 33q0 15 8 26l473 719l-450 682q-11 18 -11 31t8.5 22t22.5 9h23q18 0 32 -19l426 -647l428 647q5 6 16 12.5t17 6.5h19q32 0 32 -33q0 -18 -8 -29l-450 -684l473 -717q8 -11 8 -26q0 -33 -33 -33h-16q-7 0 -17.5 6t-15.5 12l-451 682l-450 -682q-4 -6 -15.5 -12 t-17.5 -6h-18q-33 0 -33 33z" />
<glyph unicode="Y" horiz-adv-x="1128" d="M92 1493q0 29 35 29h20q9 0 18.5 -8t14.5 -17l322 -717q21 -45 32 -58t29 -13q19 0 30.5 13.5t31.5 57.5l321 717q5 9 14.5 17t18.5 8h20q35 0 35 -29q0 -12 -6 -27l-323 -714q-46 -99 -97 -119v-594q0 -15 -10 -27t-25 -12h-20q-15 0 -25 12t-10 27v594q-50 19 -96 119 l-324 714q-6 15 -6 27z" />
<glyph unicode="Z" horiz-adv-x="1218" d="M139 88q0 38 23 74l776 1249q4 6 4 14q0 13 -16 13h-742q-17 0 -30 8t-13 22v21q0 14 13.5 23.5t29.5 9.5h742q59 0 84 -17q34 -19 34 -65q0 -32 -22 -70l-782 -1264q-4 -8 -4 -14q0 -8 14 -8h803q18 0 30.5 -8.5t12.5 -22.5v-20q0 -15 -12.5 -24t-30.5 -9h-803 q-111 0 -111 88z" />
<glyph unicode="a" horiz-adv-x="999" d="M102 317v27q0 108 48.5 176t160.5 103.5t297 35.5h158v74q0 163 -55.5 230t-202.5 67q-118 0 -291 -18h-8q-39 0 -39 30v13q0 31 47 37q155 18 291 18q101 0 170.5 -27t107.5 -79.5t54 -117.5t16 -153v-692q0 -17 -12 -29t-29 -12h-10q-17 0 -29 12t-12 29v51 q-189 -104 -348 -104q-49 0 -92 9.5t-84.5 33t-71.5 60t-48 94.5t-18 132zM193 317q0 -249 223 -249q86 0 166.5 24t183.5 80v408h-158q-231 0 -323 -52.5t-92 -183.5v-27z" />
<glyph unicode="b" horiz-adv-x="1032" d="M143 66v1417q0 15 10 27t25 12h21q15 0 24.5 -11.5t9.5 -27.5v-404q141 31 285 31q200 0 301 -123t101 -366v-136q0 -232 -99 -364.5t-303 -132.5q-149 0 -344 39q-19 4 -25 12t-6 27zM233 94q160 -26 285 -26q166 0 238.5 105t72.5 312v136q0 208 -73 308.5t-238 100.5 q-158 0 -285 -26v-910z" />
<glyph unicode="c" horiz-adv-x="894" d="M113 483v138q0 105 22.5 191.5t69.5 154.5t126.5 105.5t186.5 37.5q93 0 248 -18q23 -3 31 -11t8 -26v-15q0 -28 -33 -28h-10q-144 18 -244 18q-167 0 -241 -106t-74 -303v-138q0 -415 315 -415q100 0 244 18h10q33 0 33 -29v-14q0 -18 -8 -26t-31 -11q-155 -18 -248 -18 q-106 0 -186 39t-127 108.5t-69.5 156.5t-22.5 191z" />
<glyph unicode="d" horiz-adv-x="1032" d="M113 485v136q0 489 401 489q144 0 285 -31v404q0 15 10 27t25 12h20q15 0 25 -12t10 -27v-1417q0 -19 -6 -27t-25 -12q-195 -39 -344 -39q-204 0 -302.5 132.5t-98.5 364.5zM203 485q0 -207 72.5 -312t238.5 -105q125 0 285 26v910q-127 26 -285 26q-165 0 -238 -100.5 t-73 -308.5v-136z" />
<glyph unicode="e" horiz-adv-x="1046" d="M113 485v136q0 219 108 354t305 135q205 0 306.5 -130t101.5 -357v-56q0 -17 -11.5 -28t-27.5 -11h-692v-43q0 -100 19.5 -175t51.5 -120.5t81 -73.5t100.5 -38t117.5 -10q134 0 304 34q2 0 6 1t6 1q31 0 31 -28v-15q0 -17 -8 -25.5t-31 -12.5q-171 -35 -308 -35 q-80 0 -146 14t-125.5 49.5t-100 91t-64.5 142.5t-24 200zM203 610h641v13q0 201 -75 304t-243 103q-164 0 -243.5 -109t-79.5 -300v-11z" />
<glyph unicode="f" horiz-adv-x="772" d="M82 1049v18q0 15 11 24t28 9h203v190q0 128 59 185t172 57q67 0 107 -6q38 -5 38 -33v-14q0 -27 -43 -27h-102q-74 0 -107.5 -36t-33.5 -126v-190h243q17 0 28 -9t11 -24v-18q0 -15 -11 -24t-28 -9h-243v-977q0 -15 -11 -27t-26 -12h-15q-17 0 -27.5 11.5t-10.5 27.5v977 h-203q-17 0 -28 9t-11 24z" />
<glyph unicode="g" horiz-adv-x="1093" d="M113 -70q0 99 47 179.5t106 115.5l-14 4q-55 17 -82 53.5t-27 84.5q0 39 22 75.5t64 55.5q-106 86 -106 243v17q0 52 10 97t38.5 91.5t73.5 79t122 53.5t178 21h418q16 0 27 -9t11 -24v-23q0 -32 -38 -32h-107q113 -91 113 -254v-17q0 -76 -21.5 -134.5t-69.5 -104.5 t-131.5 -70t-201.5 -24q-135 0 -250 47q-70 -29 -70 -88q0 -49 60 -64l368 -96q179 -46 253.5 -103t74.5 -174v-18q0 -318 -434 -318q-225 0 -329.5 85t-104.5 233v18zM201 -70v-18q0 -118 79.5 -180t266.5 -62q100 0 168 16t106 48.5t54 75t16 102.5v18q0 85 -47.5 121 t-210.5 78l-283 74q-73 -48 -111 -112t-38 -161zM213 741q0 -28 5.5 -54.5t18 -57t37.5 -55t60 -45.5t89 -32.5t122 -11.5q98 0 166 19.5t104 56t51 80t15 100.5v17q0 59 -15.5 104t-52 82.5t-104 57.5t-164.5 20q-82 0 -143 -15.5t-96.5 -39.5t-57 -60t-28.5 -71t-7 -78 v-17z" />
<glyph unicode="h" horiz-adv-x="1034" d="M143 39v1444q0 15 10 27t25 12h21q15 0 24.5 -11.5t9.5 -27.5v-410q148 37 277 37q104 0 181 -29t122 -82.5t66.5 -123t21.5 -158.5v-678q0 -16 -9.5 -27.5t-25.5 -11.5h-20q-14 0 -23.5 11.5t-9.5 27.5v678q0 156 -71.5 234.5t-231.5 78.5q-152 0 -277 -37v-954 q0 -16 -9.5 -27.5t-24.5 -11.5h-21q-15 0 -25 12t-10 27z" />
<glyph unicode="i" horiz-adv-x="417" d="M164 39v1022q0 15 12 27t27 12h12q15 0 27 -12t12 -27v-1022q0 -15 -12 -27t-27 -12h-12q-15 0 -27 12t-12 27zM164 1341v152q0 15 12 27t27 12h12q15 0 27 -12t12 -27v-152q0 -17 -11.5 -27.5t-27.5 -10.5h-12q-16 0 -27.5 10.5t-11.5 27.5z" />
<glyph unicode="j" horiz-adv-x="417" d="M-78 -346q0 24 43 24h78q70 0 95.5 28.5t25.5 117.5v1237q0 16 9.5 27.5t23.5 11.5h22q16 0 25.5 -11.5t9.5 -27.5v-1237q0 -126 -51 -174.5t-160 -48.5q-39 0 -86 6q-21 3 -28 9t-7 19v19zM164 1341v152q0 15 12 27t27 12h12q15 0 27 -12t12 -27v-152q0 -17 -11.5 -27.5 t-27.5 -10.5h-12q-16 0 -27.5 10.5t-11.5 27.5z" />
<glyph unicode="k" horiz-adv-x="909" d="M143 39v1444q0 15 12 27t27 12h13q15 0 26.5 -12t11.5 -27v-862l504 471q21 18 49 18q18 0 29.5 -11.5t11.5 -25.5q0 -20 -14 -31l-502 -458l504 -533q14 -18 14 -31q0 -14 -10 -23t-28 -9q-38 0 -62 24l-496 531v-504q0 -15 -11.5 -27t-26.5 -12h-13q-15 0 -27 12 t-12 27z" />
<glyph unicode="l" horiz-adv-x="417" d="M164 39v1444q0 15 10 27t25 12h20q15 0 25 -12t10 -27v-1444q0 -15 -10 -27t-25 -12h-20q-15 0 -25 12t-10 27z" />
<glyph unicode="m" horiz-adv-x="1527" d="M143 39v1020q0 18 10 29.5t27 11.5h17q17 0 26.5 -11.5t9.5 -29.5v-37q180 88 312 88q124 0 194 -84q175 84 330 84q67 0 122.5 -19t99.5 -58t68.5 -105.5t24.5 -155.5v-733q0 -16 -9 -27.5t-25 -11.5h-21q-16 0 -25.5 11.5t-9.5 27.5v733q0 140 -60 199t-179 59 q-136 0 -277 -69q31 -81 31 -181v-741q0 -39 -31 -39h-30q-29 0 -29 39v741q0 250 -193 250q-113 0 -293 -86v-905q0 -16 -8 -27.5t-22 -11.5h-29q-14 0 -22.5 11.5t-8.5 27.5z" />
<glyph unicode="n" horiz-adv-x="1067" d="M143 39v1020q0 18 10 29.5t27 11.5h17q17 0 26.5 -11.5t9.5 -29.5v-33q175 84 330 84q77 0 140 -21.5t114 -66.5t79 -122t28 -181v-680q0 -16 -11 -27.5t-28 -11.5h-15q-15 0 -25.5 12t-10.5 27v680q0 164 -75.5 237.5t-201.5 73.5q-149 0 -324 -84v-907q0 -15 -11.5 -27 t-26.5 -12h-13q-15 0 -27 12t-12 27z" />
<glyph unicode="o" horiz-adv-x="1069" d="M113 477v144q0 235 107 362t315 127t314.5 -127t106.5 -362v-144q0 -235 -106.5 -362t-314.5 -127t-315 127t-107 362zM203 477q0 -409 332 -409q331 0 331 409v144q0 409 -331 409q-332 0 -332 -409v-144z" />
<glyph unicode="p" horiz-adv-x="1032" d="M143 -360v1392q0 19 6 27t25 12q195 39 344 39q204 0 303 -133t99 -365v-135q0 -243 -101 -366t-301 -123q-148 0 -285 30v-378q0 -16 -9.5 -27.5t-24.5 -11.5h-21q-15 0 -25 12t-10 27zM233 94q127 -26 285 -26q165 0 238 100.5t73 308.5v135q0 207 -72.5 312.5 t-238.5 105.5q-125 0 -285 -26v-910z" />
<glyph unicode="q" horiz-adv-x="1032" d="M113 477v135q0 232 98.5 365t302.5 133q149 0 344 -39q19 -4 25 -12t6 -27v-1392q0 -15 -10 -27t-25 -12h-20q-15 0 -25 12t-10 27v378q-137 -30 -285 -30q-401 0 -401 489zM203 477q0 -208 73 -308.5t238 -100.5q158 0 285 26v910q-160 26 -285 26q-166 0 -238.5 -105.5 t-72.5 -312.5v-135z" />
<glyph unicode="r" horiz-adv-x="632" d="M143 39v1020q0 18 10 29.5t27 11.5h17q17 0 26.5 -11.5t9.5 -29.5v-43q78 51 144 72.5t141 21.5q55 0 55 -31v-16q0 -33 -55 -33q-135 0 -285 -94v-897q0 -15 -11.5 -27t-26.5 -12h-13q-15 0 -27 12t-12 27z" />
<glyph unicode="s" horiz-adv-x="901" d="M102 49v23q0 28 33 28h12q196 -32 302 -32q59 0 103 9t81 30.5t56.5 63t19.5 101.5q0 63 -44 108t-173 116l-132 71q-65 35 -105 62t-75 62t-51 75.5t-16 91.5q0 55 17 99t46 72t70 46.5t85 26.5t95 8q136 0 293 -18q43 -6 43 -35v-17q0 -32 -37 -32h-6q-194 22 -285 22 q-112 0 -171.5 -36t-59.5 -136q0 -63 46.5 -108.5t151.5 -104.5l138 -76q141 -78 200.5 -140t59.5 -157q0 -79 -28 -136t-79 -88.5t-112 -45.5t-136 -14q-149 0 -297 28q-45 9 -45 33z" />
<glyph unicode="t" horiz-adv-x="778" d="M82 1049v20q0 31 39 31h203v211q0 16 9 27.5t25 11.5h23q14 0 23.5 -11.5t9.5 -27.5v-211h243q39 0 39 -31v-20q0 -15 -11 -24t-28 -9h-243v-807q0 -86 33 -113.5t108 -27.5h98q43 0 43 -29v-12q0 -14 -7 -22t-27 -11q-46 -6 -107 -6q-117 0 -174 48t-57 173v807h-203 q-17 0 -28 9t-11 24z" />
<glyph unicode="u" horiz-adv-x="1067" d="M143 381v680q0 16 11 27.5t28 11.5h15q15 0 25.5 -12t10.5 -27v-680q0 -163 74.5 -237t198.5 -74h4q142 0 324 84v907q0 15 11.5 27t26.5 12h13q15 0 27 -12t12 -27v-1020q0 -18 -10 -29.5t-27 -11.5h-17q-17 0 -26.5 11.5t-9.5 29.5v33q-175 -84 -330 -84 q-160 0 -260.5 95.5t-100.5 295.5z" />
<glyph unicode="v" horiz-adv-x="983" d="M80 1065q0 15 9 25t24 10h20q27 0 37 -37l262 -924q12 -42 27 -57.5t35 -15.5q19 0 31.5 15t25.5 58l262 924q10 37 37 37h24q29 0 29 -31q0 -14 -2 -20l-268 -932q-22 -76 -55.5 -102.5t-83.5 -26.5t-86.5 27t-57.5 102l-268 932q-2 6 -2 16z" />
<glyph unicode="w" horiz-adv-x="1540" d="M100 1061q0 16 11 27.5t28 11.5h13q11 0 20 -8.5t12 -20.5l222 -952q10 -51 24 -51h4q13 0 27 49l221 790q20 74 88 74t88 -74l221 -790q14 -49 27 -49h4q15 0 25 51l221 952q3 11 12.5 20t20.5 9h12q17 0 28 -11.5t11 -27.5q0 -2 -1 -5t-1 -5l-226 -953q-14 -60 -37 -85 t-69 -25t-67 26.5t-38 89.5l-217 779q-4 18 -12 18h-2h-2q-8 0 -12 -18l-217 -779q-17 -63 -38 -89.5t-67 -26.5t-69 25t-37 85l-226 953q0 2 -1 5t-1 5z" />
<glyph unicode="x" horiz-adv-x="1009" d="M88 25q0 15 10 28l361 510l-348 488q-9 13 -9 22q0 11 9.5 19t27.5 8h13q27 0 38 -17l324 -450l313 446q14 21 39 21h19q30 0 30 -25q0 -14 -14 -35l-338 -481l363 -508q6 -9 6 -22q0 -12 -7.5 -20.5t-21.5 -8.5h-16q-28 0 -39 16l-340 476l-334 -476q-12 -16 -22 -16 h-35q-29 0 -29 25z" />
<glyph unicode="y" horiz-adv-x="995" d="M78 -336q0 29 31 29h12q93 -12 133 -12q110 0 158.5 44.5t85.5 178.5l26 96h-28q-50 0 -77 22.5t-48 92.5l-277 936q-2 4 -2 14q0 16 9 25.5t26 9.5h18q10 0 20 -9t13 -20l277 -942q8 -29 19.5 -37t27.5 -8h47l280 989q3 11 14 19t23 8h19q30 0 30 -35q0 -10 -2 -16 l-335 -1164q-47 -164 -118 -224t-214 -60q-53 0 -127 12q-41 7 -41 29v22z" />
<glyph unicode="z" horiz-adv-x="913" d="M82 84q0 46 24 76l613 817q8 12 8 20t-8 13.5t-21 5.5h-538q-18 0 -29.5 8t-11.5 23v20q0 15 11.5 24t29.5 9h540q50 0 82.5 -24.5t32.5 -63.5q0 -48 -33 -92l-594 -797q-12 -20 -12 -25q0 -14 21 -14h594q40 0 40 -31v-20q0 -15 -11.5 -24t-28.5 -9h-594 q-56 0 -85.5 23.5t-29.5 60.5z" />
<glyph unicode="&#xad;" horiz-adv-x="704" d="M106 559v16q0 15 11 26t28 11h414q17 0 28 -11t11 -26v-16q0 -15 -11 -24t-28 -9h-414q-17 0 -28 9t-11 24z" />
<glyph unicode="&#x2000;" horiz-adv-x="766" />
<glyph unicode="&#x2001;" horiz-adv-x="1532" />
<glyph unicode="&#x2002;" horiz-adv-x="766" />
<glyph unicode="&#x2003;" horiz-adv-x="1532" />
<glyph unicode="&#x2004;" horiz-adv-x="510" />
<glyph unicode="&#x2005;" horiz-adv-x="383" />
<glyph unicode="&#x2006;" horiz-adv-x="255" />
<glyph unicode="&#x2007;" horiz-adv-x="255" />
<glyph unicode="&#x2008;" horiz-adv-x="191" />
<glyph unicode="&#x2009;" horiz-adv-x="306" />
<glyph unicode="&#x200a;" horiz-adv-x="85" />
<glyph unicode="&#x2010;" horiz-adv-x="704" d="M106 559v16q0 15 11 26t28 11h414q17 0 28 -11t11 -26v-16q0 -15 -11 -24t-28 -9h-414q-17 0 -28 9t-11 24z" />
<glyph unicode="&#x2011;" horiz-adv-x="704" d="M106 559v16q0 15 11 26t28 11h414q17 0 28 -11t11 -26v-16q0 -15 -11 -24t-28 -9h-414q-17 0 -28 9t-11 24z" />
<glyph unicode="&#x2012;" horiz-adv-x="704" d="M106 559v16q0 15 11 26t28 11h414q17 0 28 -11t11 -26v-16q0 -15 -11 -24t-28 -9h-414q-17 0 -28 9t-11 24z" />
<glyph unicode="&#x2013;" horiz-adv-x="1236" d="M106 559v16q0 15 23 26t58 11h862q35 0 58 -11t23 -26v-16q0 -15 -23 -24t-58 -9h-862q-35 0 -58 9t-23 24z" />
<glyph unicode="&#x2014;" horiz-adv-x="2260" d="M106 559v16q0 15 46 26t116 11h1724q70 0 116 -11t46 -26v-16q0 -15 -46 -24t-116 -9h-1724q-70 0 -116 9t-46 24z" />
<glyph unicode="&#x202f;" horiz-adv-x="306" />
<glyph unicode="&#x205f;" horiz-adv-x="383" />
<glyph unicode="&#x25fc;" horiz-adv-x="1095" d="M0 0v1096h1096v-1096h-1096z" />
</font>
</defs>
</svg>
